#TITLE:Like This;
#SUBTITLE:;
#ARTIST:Koyote;
#TITLETRANSLIT:Like This;
#SUBTITLETRANSLIT:;
#ARTISTTRANSLIT:Koyote;
#CREDIT:;
#BANNER:Like This-bn.png;
#BACKGROUND:Like This-bg.png;
#LYRICSPATH:;
#CDTITLE:pm4cd.png;
#MUSIC:Like This.mp3;
#OFFSET:-0.040;
#SAMPLESTART:78.850;
#SAMPLELENGTH:19.960;
#SELECTABLE:YES;
#BPMS:0.000=139.970;
#STOPS:;
#BGCHANGES:;
// cache tags:
#FIRSTBEAT:5.500;
#LASTBEAT:368.000;
#SONGFILENAME:Songs/Music V.I.P ^_^/Like This/Like This.sm;
#HASMUSIC:1;
#HASBANNER:1;
#MUSICLENGTH:160.574;
// end cache tags

//---------------dance-single - ----------------
#NOTES:
     dance-single:
     :
     Hard:
     15:
     1.000,1.000,1.000,0.012,0.788,903.000,308.000,2.000,0.000,41.000:
0000
0000
0000
0000
,
0000
0000
0000
0000
0000
0000
1000
0000
0000
0000
0000
0001
0000
0000
0000
0000
,
0100
0000
0000
0000
0000
0010
0000
0000
0000
0000
0001
0000
0000
0000
0000
1000
,
0000
0000
0000
0000
0001
0000
0000
0000
0000
0010
0000
0000
0000
0000
0100
0000
,
0000
0010
0000
0000
0000
0000
0001
0000
0000
0000
0000
0000
0010
0000
0000
0000
0000
1000
0000
0000
0000
0000
0010
0000
0000
0000
0000
0000
0001
0000
0000
0000
,
0000
0000
0100
0000
0000
0000
0000
0000
0000
0000
0000
0000
0010
0000
0000
0000
0000
0000
0000
0000
0000
0000
0100
0000
0000
0000
0000
0000
0000
0000
0010
0000
0000
0000
0000
0000
0000
0000
0000
0010
0000
0000
0000
0000
0000
0000
0000
0000
0001
0000
0000
0000
0000
0000
0000
0000
0000
0000
0010
0000
0000
0000
0000
0000
,
0000
0000
0100
0000
0000
0000
0000
0010
0000
0000
0000
0000
1000
0000
0000
0000
0000
0100
0000
0000
0000
0000
0010
0000
0000
0000
0000
0000
0010
0000
0100
0000
,
0010
0000
0000
0000
0000
0100
0000
0000
0000
0000
1000
0000
0000
0000
0000
0100
0000
0000
0000
0000
0010
0000
0000
0000
0000
0100
0000
0000
0000
0000
1000
0000
,
0000
0000
1000
0000
0100
0000
0010
0000
0000
0000
1000
0000
0000
0000
0000
0100
0000
0000
0000
0000
0010
0000
0000
0000
0000
0100
0000
0000
0000
0000
0010
0000
,
0000
0000
0000
1000
0000
0000
0000
0000
0010
0000
0100
0000
1000
0000
0000
0000
0100
0000
0000
0000
0010
0000
0000
0000
0001
0000
0000
0000
0000
0010
0000
0000
,
0000
0000
0001
0000
0000
0000
0100
0000
0000
0000
0010
0000
0001
0000
0010
0000
0000
0000
0000
1000
0000
0000
0000
0000
0100
0000
0000
0000
0000
0000
0000
0000
,
1001
0000
0000
0000
0100
0000
0000
0000
0000
0010
0000
0000
0000
0000
0000
0100
0000
0010
0000
1000
0000
0000
0000
0000
0010
0000
0000
0000
0000
0000
0000
0000
,
1000
0010
1000
0010
1000
0010
1000
0010
1000
0010
1000
0010
1000
0010
1000
0010
,
0101
0000
0000
0000
0000
0000
0000
0000
0000
0000
0010
0000
0010
0100
1000
0100
,
0011
0000
1000
0100
0011
0000
1000
0100
0011
0000
1000
0100
0011
0000
1000
0100
,
0011
0000
0001
0100
1010
0000
0001
0100
1010
0000
0001
0100
1010
0000
0001
0100
,
1010
0000
1000
0010
0101
0000
1000
0010
0101
0000
1000
0010
0101
0000
1000
0010
,
0101
0000
0001
0010
1100
0000
0001
0010
1100
0000
0001
0010
1100
0000
0001
0010
,
1100
0000
0100
1000
0011
0000
0100
1000
0011
0000
0100
1000
0011
0000
0100
1000
,
0011
0000
0010
0001
1100
0000
0010
0001
1100
0000
0010
0001
1100
0000
0010
0001
,
1100
0000
1000
0100
0011
0000
1000
0100
0011
0000
1000
0100
0011
0000
1000
0100
,
0011
1000
0010
1000
0010
1000
0010
1000
0010
1000
0010
1000
0010
1000
0010
1000
,
0011
1000
0011
0001
1100
1000
0111
0010
,
1100
0001
1100
1000
0011
0001
1110
0100
,
0011
0010
1100
0100
1010
0010
0101
0100
,
0011
1000
1100
0001
0111
0000
1110
0000
,
1100
0001
1100
1000
0011
0001
1110
0100
,
0011
1000
0011
0001
1100
1000
0111
0010
,
0011
0010
1100
0100
1010
0010
0101
0100
,
0001
0001
0000
0100
0100
0000
0010
0010
0000
0001
0101
0000
1001
1000
0000
0000
,
0111
0000
1000
0100
0011
0000
1000
0100
0011
0000
1000
0100
0011
0000
1000
0100
,
0011
0000
0001
0100
1010
0000
0001
0100
1010
0000
0001
0100
1010
0000
0001
0100
,
1010
0000
1000
1000
0110
0000
0001
0001
0110
0000
0100
0100
0011
0000
0010
0010
,
1100
0000
0100
0100
1010
0000
0010
0010
0101
0000
1000
1000
0101
0000
0001
0001
,
1100
0100
0011
0010
1100
0100
0101
0001
,
0101
0010
1100
0010
0011
0100
1100
0010
,
0001
0100
0001
0100
0001
0100
0001
0100
0001
0100
0001
0100
0001
0100
0001
0100
,
1010
0000
0000
0000
0101
0000
0000
0000
1010
0000
0000
0000
0101
0010
0010
0010
,
1100
0010
0001
0010
0100
1000
0100
0010
,
1100
0100
0011
0010
0110
0100
1100
1000
,
0010
0100
1000
0100
0010
0001
0010
0100
,
0011
0001
0110
0100
1100
0010
0011
0100
,
2110
0010
0011
0010
0101
0010
0110
0010
,
3121
0100
1100
0100
0101
0001
0101
1000
,
1030
0001
1000
0001
1000
0001
1000
0001
1000
0001
1000
0001
1000
0001
1000
0001
,
0110
0000
0110
0000
0110
0000
0110
0000
1010
0101
1010
0101
1010
0101
1010
0000
,
1010
0000
1000
1000
0110
0000
0001
0001
0110
0000
0100
0100
0011
0000
0010
0010
,
1100
0000
0100
0100
1010
0000
0010
0010
0101
0000
1000
1000
0101
0000
0001
0001
,
1100
0000
1000
0100
0011
0000
0001
0010
1100
0000
0100
0010
0101
0000
0010
0100
,
1010
0000
0100
0010
0101
0000
0010
0100
1010
0000
0100
0010
1100
0000
0010
0100
,
0011
0001
1010
1000
0101
0010
1100
0100
,
0011
0010
1100
0100
0110
0001
0011
0010
,
1100
0010
0101
0010
0011
1000
1001
0100
,
0101
1010
0101
1010
0101
1010
0101
1010
0101
1010
0101
1010
0101
1010
0101
1010
,
0001
0010
0100
1000
0100
0010
0001
0010
,
0000
0100
0010
0001
0010
0100
1000
0100
,
0110
0100
1100
0010
0011
0010
0110
1000
,
0110
0010
0011
0010
1100
1000
0101
0010
,
1000
0100
0010
0001
0010
0100
1000
0100
,
0000
0001
0010
0100
1000
0100
0010
0001
,
0100
1100
0010
0011
0100
1100
0010
0011
,
1000
0100
1000
0100
1000
0100
1000
0100
1000
0100
1000
0100
1000
0100
1000
0100
,
1010
0000
1000
0010
0101
0000
1000
0010
0101
0000
1000
0010
0101
0000
1000
0010
,
0101
0000
0001
0010
1100
0000
0001
0010
1100
0000
0001
0010
1100
0000
0001
0010
,
1100
0000
0100
1000
0011
0000
0100
1000
0011
0000
0100
1000
0011
0000
0100
1000
,
0011
0000
0010
0001
1100
0000
0010
0001
1100
0000
0010
0001
1100
0000
0010
0001
,
1100
0000
1000
0100
0011
0000
1000
0100
0011
0000
1000
0100
0011
0000
1000
0100
,
0011
1000
0010
1000
0010
1000
0010
1000
0010
1000
0010
1000
0010
1000
0010
1000
,
0010
0000
1000
1000
0110
0000
0001
0001
0110
0000
0100
0100
0011
0000
0010
0010
,
1100
0000
0100
0100
1010
0000
0010
0010
0101
0000
1000
1000
0101
0000
0001
0001
,
1100
0000
1000
0100
0011
0000
0001
0010
1100
0000
0100
0010
0101
0000
0010
0100
,
1010
0000
0100
0010
0101
0000
0010
0100
1010
0000
0100
0010
1100
0000
0010
0100
,
1010
0000
0010
0001
0110
0000
0100
1000
0011
0000
1000
0100
1010
0000
0100
0001
,
1010
0000
0001
0100
0011
0000
1000
0010
1100
0000
0001
0100
1010
0000
0100
0001
,
1100
0000
0010
0100
1010
0000
0100
0010
0101
0000
0001
0010
1100
0000
1000
0100
,
0011
1100
0011
1100
0011
1100
0011
1100
0011
1100
0011
1100
0011
1100
0011
0000
,
0110
1000
0110
0100
1010
0100
0101
0001
,
0110
0100
1100
0010
0011
0100
1100
0010
,
0101
0000
0010
0100
1011
0000
0010
0001
1110
0000
0100
1000
0111
0000
0100
0010
,
1101
0000
0001
0010
1101
0000
0100
0010
1101
0000
1000
0010
1101
0000
0001
0010
,
1101
0100
1100
0010
0011
0100
1100
0010
,
0101
0010
1100
0010
0101
0010
0110
1000
,
0110
0000
1000
0100
1011
0000
0001
0010
1101
0000
0100
0010
1101
0000
0010
0100
,
1011
0100
0010
0001
0010
0100
1000
0100
0010
0001
0010
0100
1000
0100
0010
0001
,
1110
0100
0110
1100
0111
0001
0110
1100
,
0111
1100
0011
0110
1110
0100
0011
0000
,
1110
0001
1010
0110
0111
0100
1100
0011
,
1110
1010
0011
0110
1011
0100
0011
0100
,
1110
0100
1010
0110
1011
0100
1100
0011
,
0110
1010
1011
0110
1011
0001
0110
0010
,
1101
0010
1100
0011
1110
0010
0101
1100
,
1000
0010
1000
0010
1000
0010
1000
0010
1000
0010
1000
0010
1000
0010
1000
0010
,
1001
0000
0000
0000
;

//---------------dance-single - ----------------
#NOTES:
     dance-single:
     :
     Medium:
     1:
     0.000,0.000,0.000,0.000,0.000,0.000,0.000,0.000,0.000,0.000:
0000
0000
0000
0000
;
